<?xml version="1.0" standalone="no"?>
<!DOCTYPE svg PUBLIC "-//W3C//DTD SVG 1.1//EN" "http://www.w3.org/Graphics/SVG/1.1/DTD/svg11.dtd" >
<svg xmlns="http://www.w3.org/2000/svg">
<metadata>Generated by IcoMoon</metadata>
<defs>
<font id="Local-Icons" horiz-adv-x="1024">
<font-face units-per-em="1024" ascent="960" descent="-64" />
<missing-glyph horiz-adv-x="1024" />
<glyph unicode="&#x20;" horiz-adv-x="512" d="" />
<glyph unicode="&#xe900;" glyph-name="arrow" d="M714.185 781.076l301.538-298.828c5.124-5.082 7.885-11.618 8.277-18.27v-3.516c-0.393-6.647-3.153-13.188-8.277-18.27l-1.476-1.246-300.062-297.579c-11.102-11.008-29.103-11.008-40.205 0s-11.102 28.86 0 39.868l256.23 254.131-901.781-0.026c-15.701 0-28.429 12.625-28.429 28.194s12.728 28.19 28.429 28.19l895.099 0.021-249.549 247.461c-11.102 11.009-11.102 28.859 0 39.869s29.103 11.009 40.205 0zM998.835 465.557l-304.755-302.255 301.538 299.025-1.681 1.527-1.715 1.702h6.613z" />
<glyph unicode="&#xe901;" glyph-name="check" d="M883.503 734.17c16.661-16.663 16.661-43.677 0-60.34l-469.333-469.333c-16.663-16.661-43.677-16.661-60.34 0l-213.333 213.333c-16.662 16.661-16.662 43.678 0 60.339s43.677 16.661 60.34 0l183.163-183.164 439.164 439.164c16.661 16.662 43.678 16.662 60.339 0z" />
<glyph unicode="&#xe902;" glyph-name="chevron-down" d="M195.66 636.34c33.325 33.324 87.355 33.324 120.68 0l195.66-195.661 195.66 195.661c33.325 33.324 87.355 33.324 120.68 0 33.322-33.325 33.322-87.355 0-120.68l-256-256c-33.325-33.324-87.355-33.324-120.68 0l-256 256c-33.324 33.325-33.324 87.355 0 120.68z" />
<glyph unicode="&#xe903;" glyph-name="chevron-right" d="M360.249 928.865l458.356-458.257c6.557-6.548 9.84-14.080 9.84-22.6s-3.283-16.067-9.84-22.618l-458.356-458.217c-6.566-6.571-14.1-9.839-22.628-9.839-8.523 0-16.067 3.285-22.62 9.839l-49.166 49.152c-6.556 6.554-9.832 14.097-9.832 22.622 0 8.516 3.276 16.060 9.832 22.613l386.549 386.448-386.573 386.46c-6.556 6.55-9.812 14.096-9.812 22.604 0 8.534 3.276 16.077 9.812 22.628l49.186 49.162c6.553 6.551 14.1 9.806 22.62 9.806 8.531 0.003 16.075-3.251 22.631-9.802z" />
<glyph unicode="&#xe904;" glyph-name="eye" d="M128.796 448.001c3.555 7.494 8.899 18.132 16.129 30.89 15.025 26.515 37.992 61.83 69.677 97.036 63.326 70.363 159.851 138.74 297.281 138.74s233.955-68.378 297.283-138.74c31.686-35.206 54.65-70.521 69.677-97.036 7.232-12.758 12.576-23.396 16.128-30.89-3.552-7.494-8.896-18.132-16.128-30.89-15.027-26.515-37.99-61.83-69.677-97.036-63.328-70.36-159.853-138.737-297.283-138.737s-233.955 68.378-297.281 138.737c-31.686 35.206-54.653 70.521-69.677 97.036-7.229 12.758-12.574 23.396-16.129 30.89zM930.016 448.001c29.709 11.885 29.709 11.898 29.702 11.913l-0.019 0.035-0.032 0.092-0.109 0.264-0.352 0.848c-0.288 0.705-0.704 1.686-1.242 2.926-1.075 2.48-2.643 5.997-4.723 10.401-4.147 8.805-10.349 21.19-18.72 35.964-16.704 29.485-42.272 68.837-77.786 108.298-71.072 78.97-183.616 159.926-344.854 159.926-161.236 0-273.778-80.956-344.851-159.926-35.514-39.46-61.080-78.813-77.789-108.298-8.372-14.774-14.57-27.16-18.721-35.964-2.076-4.405-3.644-7.921-4.719-10.401-0.538-1.24-0.952-2.221-1.245-2.927l-0.349-0.847-0.144-0.355-0.014-0.035c-0.006-0.015-0.012-0.028 29.7-11.913l-29.711 11.885c-3.051-7.629-3.051-16.14 0-23.769l29.711 11.884c-29.711-11.884-29.706-11.898-29.7-11.913l0.014-0.035 0.037-0.092 0.107-0.264 0.349-0.847c0.294-0.705 0.708-1.686 1.245-2.927 1.075-2.48 2.643-5.996 4.719-10.401 4.151-8.804 10.349-21.19 18.721-35.964 16.708-29.485 42.275-68.837 77.789-108.297 71.073-78.97 183.615-159.924 344.851-159.924 161.238 0 273.782 80.954 344.854 159.923 35.514 39.46 61.082 78.813 77.786 108.298 8.371 14.774 14.573 27.16 18.72 35.964 2.080 4.405 3.648 7.921 4.723 10.401 0.538 1.24 0.954 2.221 1.242 2.927l0.352 0.847 0.109 0.264 0.032 0.092 0.019 0.035c0.006 0.015 0.006 0.028-29.702 11.913zM930.016 448.001l29.709-11.885c3.053 7.629 3.053 16.14 0 23.77l-29.709-11.885zM360.417 448.001c0 83.652 67.814 151.467 151.467 151.467s151.464-67.814 151.464-151.467c0-83.652-67.811-151.467-151.464-151.467s-151.467 67.814-151.467 151.467zM511.884 535.468c-48.307 0-87.467-39.16-87.467-87.467s39.16-87.467 87.467-87.467c48.307 0 87.466 39.16 87.466 87.467s-39.16 87.467-87.466 87.467z" />
<glyph unicode="&#xe905;" glyph-name="fi-rs-book-alt" d="M978.008 887.468c-14.373 12.043-31.217 20.766-49.349 25.546s-37.091 5.497-55.53 2.102l-263.678-47.915c-37.732-6.804-72.066-26.135-97.45-54.87-25.365 28.782-59.701 48.16-97.45 54.998l-263.68 47.915c-18.442 3.349-37.394 2.607-55.518-2.174s-34.976-13.484-49.367-25.493c-14.39-12.010-25.968-27.033-33.914-44.009s-12.067-35.49-12.071-54.233v-718.247l512-93.147 512 93.147v718.247c0 18.73-4.118 37.231-12.069 54.19-7.943 16.96-19.529 31.962-33.924 43.944v0zM469.334 72.536l-384 69.72v647.079c0.005 6.247 1.382 12.417 4.033 18.073s6.513 10.661 11.311 14.662c4.797 4 10.416 6.898 16.456 8.489s12.357 1.836 18.504 0.718l263.637-47.914c19.662-3.577 37.445-13.942 50.248-29.287s19.814-34.696 19.811-54.681v-626.858zM938.664 142.336l-383.998-69.8v626.858c-0.003 19.985 7.009 39.336 19.811 54.681s30.585 25.71 50.248 29.287l263.638 47.914c6.144 1.118 12.464 0.873 18.505-0.718 6.034-1.591 11.659-4.489 16.457-8.489s8.653-9.006 11.308-14.662c2.648-5.656 4.030-11.826 4.030-18.073v-646.998z" />
<glyph unicode="&#xe906;" glyph-name="menu" d="M1024 576h-1024v64h1024v-64zM1024 256h-1024v64h1024v-64z" />
<glyph unicode="&#xe907;" glyph-name="message-text-alt" d="M36.571 823.851c0 55.064 44.58 99.577 99.62 99.577h756.583c55.040 0 99.621-44.513 99.621-99.577v-567.068c0-55.063-44.581-99.577-99.621-99.577h-366.107l-242.445-181.716c-11.083-8.309-25.907-9.64-38.294-3.445s-20.211 18.856-20.211 32.709v152.452h-89.526c-55.040 0-99.62 44.515-99.62 99.577v567.068zM136.191 850.286c-14.691 0-26.477-11.813-26.477-26.435v-567.068c0-14.622 11.786-26.435 26.477-26.435h162.669v-152.48l203.439 152.48h390.475c14.694 0 26.478 11.813 26.478 26.435v567.068c0 14.622-11.783 26.435-26.478 26.435h-756.583zM288.766 671.399h451.433v-73.143h-451.433v73.143zM288.766 482.377h325.337v-73.143h-325.337v73.143z" />
<glyph unicode="&#xe908;" glyph-name="moon" d="M422.563 858.184c16.119-16.089 21.090-40.24 12.635-61.387-14.994-37.502-23.421-79.018-23.421-121.961 0-180.658 146.452-327.109 327.112-327.109 43.025 0 84.235 8.516 121.993 23.689 21.146 8.494 45.312 3.561 61.429-12.544s21.066-40.272 12.59-61.417c-65.041-162.162-223.733-276.844-409.345-276.844-243.496 0-440.889 197.393-440.889 440.889 0 185.478 114.514 344.072 276.486 409.2 21.13 8.496 45.292 3.572 61.411-12.516zM298.557 697.043c-61.746-59.527-100.113-143.085-100.113-235.543 0-180.657 146.452-327.112 327.111-327.112 92.463 0 176.021 38.372 235.55 100.124-7.361-0.375-14.768-0.563-22.215-0.563-243.498 0-440.89 197.391-440.89 440.887 0 7.437 0.188 14.841 0.558 22.206z" />
<glyph unicode="&#xe909;" glyph-name="play-1" d="M512-64c-282.77 0-512 229.229-512 512s229.23 512 512 512c282.771 0 512-229.23 512-512s-229.229-512-512-512zM443.733 270.636l256 147.804c22.757 13.138 22.757 45.981 0 59.119l-256 147.802c-22.757 13.138-51.2-3.285-51.2-29.561v-295.601c0-26.276 28.443-42.701 51.2-29.563z" />
<glyph unicode="&#xe90a;" glyph-name="play-2" d="M512-29.867c-263.919 0-477.867 213.948-477.867 477.867s213.948 477.867 477.867 477.867c263.919 0 477.867-213.948 477.867-477.867s-213.948-477.867-477.867-477.867zM512-64c282.769 0 512 229.231 512 512s-229.231 512-512 512c-282.769 0-512-229.231-512-512s229.231-512 512-512zM665.6 471.345c22.755-13.138 22.755-45.984 0-59.122l-217.6-125.631c-22.755-13.138-51.2 3.285-51.2 29.561v251.262c0 26.276 28.445 42.699 51.2 29.561l217.6-125.631z" />
<glyph unicode="&#xe90b;" glyph-name="search-2" d="M1014.283-8.289l-264.38 260.153c69.234 75.218 111.77 174.699 111.77 284.165-0.034 234.167-192.91 423.971-430.853 423.971s-430.821-189.804-430.821-423.971c0-234.165 192.877-423.97 430.821-423.97 102.808 0 197.102 35.556 271.171 94.674l265.404-261.177c12.931-12.743 33.929-12.743 46.859 0 12.959 12.737 12.959 33.411 0.028 46.154zM430.821 177.289c-201.326 0-364.533 160.614-364.533 358.741s163.206 358.74 364.533 358.74c201.329 0 364.531-160.613 364.531-358.74s-163.203-358.741-364.531-358.741z" />
<glyph unicode="&#xe90c;" glyph-name="share" d="M901.747 10.624h-831.997v639.998h257.6l64.736 62.336-1.664 1.664h-320.672c-35.36 0-64-28.672-64-64v-639.998c0-35.36 28.64-64 64-64h831.997c35.36 0 64 28.64 64 64v500.67l-64-61.088v-439.582zM270.038 266.624h64.48c44.864 254.494 266.529 447.998 533.885 447.998 11.232 0 21.856-0.096 32.608-0.16l-117.248-117.248c-12.48-12.48-12.48-32.768 0-45.248 6.24-6.272 14.464-9.376 22.656-9.376s16.352 3.136 22.592 9.376l189.024 194.016-189.024 194.048c-12.48 12.512-32.736 12.512-45.248 0-12.48-12.512-12.48-32.768 0-45.248l116.192-116.16c-10.048 0-19.968 0.064-30.208 0.064-303.037 0-553.565-221.984-599.709-512.062z" />
<glyph unicode="&#xe90d;" glyph-name="sun" d="M512 883.2c28.278 0 51.2-22.923 51.2-51.2v-42.666c0-28.277-22.922-51.2-51.2-51.2-28.277 0-51.2 22.923-51.2 51.2v42.666c0 28.277 22.923 51.2 51.2 51.2zM198.463 761.537c19.995 19.995 52.413 19.995 72.408 0l34.736-34.736c19.995-19.995 19.995-52.413 0-72.408s-52.413-19.995-72.408 0l-34.736 34.736c-19.995 19.995-19.995 52.413 0 72.408zM825.533 761.538c19.999-19.995 19.999-52.413 0.005-72.408l-34.734-34.736c-19.999-19.995-52.413-19.996-72.412-0.001-19.994 19.994-19.994 52.412 0 72.408l34.734 34.736c19.994 19.995 52.413 19.996 72.407 0.002zM512 567.466c-65.979 0-119.466-53.487-119.466-119.466 0-65.981 53.487-119.465 119.466-119.465 65.981 0 119.465 53.484 119.465 119.465 0 65.979-53.484 119.466-119.465 119.466zM290.134 448c0 122.533 99.333 221.866 221.866 221.866s221.865-99.333 221.865-221.866c0-122.532-99.333-221.865-221.865-221.865s-221.866 99.333-221.866 221.865zM76.8 448c0 28.277 22.923 51.2 51.2 51.2h42.666c28.277 0 51.2-22.923 51.2-51.2 0-28.278-22.923-51.2-51.2-51.2h-42.666c-28.277 0-51.2 22.922-51.2 51.2zM802.135 448c0 28.277 22.922 51.2 51.2 51.2h42.665c28.278 0 51.2-22.923 51.2-51.2 0-28.278-22.922-51.2-51.2-51.2h-42.665c-28.278 0-51.2 22.922-51.2 51.2zM305.696 241.341c19.945-20.045 19.864-52.465-0.181-72.407l-34.736-34.565c-20.045-19.942-52.463-19.866-72.408 0.179s-19.864 52.465 0.181 72.412l34.736 34.56c20.044 19.948 52.463 19.866 72.407-0.179zM718.305 241.341c19.942 20.045 52.362 20.122 72.407 0.179l34.734-34.565c20.045-19.942 20.127-52.362 0.179-72.407s-52.362-20.122-72.407-0.179l-34.734 34.565c-20.045 19.942-20.127 52.362-0.179 72.407zM512 157.865c28.278 0 51.2-22.922 51.2-51.2v-42.665c0-28.278-22.922-51.2-51.2-51.2-28.277 0-51.2 22.922-51.2 51.2v42.665c0 28.278 22.923 51.2 51.2 51.2z" />
<glyph unicode="&#xe90e;" glyph-name="Vector" d="M464 816c-176.731 0-320-143.269-320-320s143.269-320 320-320c176.73 0 320 143.27 320 320s-143.27 320-320 320zM16 496c0 247.423 200.577 448 448 448s448-200.577 448-448c0-247.424-200.576-448-448-448s-448 200.576-448 448zM689.946 270.054c24.992 24.992 65.517 24.992 90.509 0l208.8-208.8c24.992-24.992 24.992-65.517 0-90.509s-65.517-24.992-90.509 0l-208.8 208.8c-24.992 24.992-24.992 65.517 0 90.509z" />
<glyph unicode="&#xe90f;" glyph-name="volume" d="M478.208 682.408c-37.035 0-84.396-37.589-123.82-68.907-37.931-30.080-67.883-53.888-97.749-56.107-13.227-0.939-24.576-1.365-34.56-1.707-31.872-1.067-39.936-1.792-54.315-13.653-18.859-15.489-18.56-78.764-18.389-116.524l0.043-9.429v-0.171l-0.043-9.429c-0.171-37.803-0.469-101.077 18.389-116.565 14.336-11.861 22.4-12.544 54.187-13.696 10.027-0.299 21.419-0.725 34.688-1.707 29.867-2.176 59.819-25.984 97.749-56.064 47.061-37.333 105.345-83.627 144.001-64.384 32.341 28.032 35.797 102.357 35.797 261.931 0 159.575-3.456 233.857-35.797 261.932-6.272 3.115-13.056 4.48-20.181 4.48zM478.635 85.244c-59.35 0-118.188 46.72-164.012 83.072-20.693 16.427-51.968 41.259-62.763 42.368-12.245 0.939-22.827 1.323-32.171 1.579-34.048 1.237-60.971 2.133-92.629 28.245-42.325 34.859-41.941 107.733-41.685 166.272l0.043 9.216-0.043 9.216c-0.256 58.539-0.64 131.372 41.685 166.231 31.701 26.112 58.667 27.051 92.8 28.203 9.301 0.341 19.84 0.683 32.085 1.579 10.709 1.152 41.984 25.984 62.677 42.411 59.691 47.403 141.441 112.128 217.601 68.736 1.323-0.811 2.645-1.664 3.84-2.645 59.477-46.72 62.123-134.827 62.123-313.729 0-178.944-2.645-267.051-62.123-313.813-1.195-0.939-2.517-1.835-3.883-2.603-17.664-10.069-35.627-14.336-53.547-14.336zM846.153 123.908c-6.315 0-12.672 1.877-18.261 5.76-14.507 10.069-18.091 29.995-7.979 44.544 102.101 146.773 102.101 336.597 0 483.628-10.112 14.507-6.528 34.432 8.021 44.544 14.507 10.112 34.389 6.485 44.501-8.064 115.755-166.572 115.755-390.273 0-556.716-6.229-8.917-16.171-13.696-26.283-13.696zM739.482 226.697c-5.419 0-10.88 1.365-15.915 4.267-15.317 8.789-20.608 28.373-11.819 43.648 49.963 87.083 49.963 195.371 0 282.709-8.789 15.36-3.456 34.901 11.861 43.691 15.36 8.619 34.859 3.456 43.648-11.861 61.227-107.008 61.227-239.701 0-346.368-5.931-10.325-16.683-16.085-27.776-16.085z" />
<glyph unicode="&#xe910;" glyph-name="close" d="M18.991 941.006c25.322 25.326 66.38 25.324 91.703 0.001l401.306-401.308 401.306 401.307c25.323 25.326 66.381 25.32 91.703 0.002 25.323-25.322 25.323-66.38 0-91.703l-401.306-401.306 401.306-401.306c25.323-25.323 25.323-66.381 0-91.703-12.659-12.655-29.299-18.991-45.854-18.991-16.546 0-33.19 6.332-45.85 18.991l-401.306 401.306-401.303-401.306c-12.657-12.655-29.3-18.991-45.852-18.991-16.55 0-33.193 6.332-45.851 18.991-25.326 25.318-25.324 66.377-0.001 91.699l401.305 401.31-401.304 401.304c-25.326 25.324-25.32 66.381-0.002 91.702z" />
<glyph unicode="&#xe911;" glyph-name="quote" horiz-adv-x="1998" d="M209.655 299.597c-68.977 0-121.618 20.875-157.922 62.624-34.489 41.749-51.733 99.835-51.733 174.257 0 70.793 12.706 130.695 38.119 179.705s56.271 89.852 92.575 122.525c38.119 32.674 75.33 58.086 111.634 76.238 38.12 19.967 69.884 34.489 95.297 43.565l32.676-68.070c-30.86-12.706-63.533-29.951-98.022-51.733s-64.439-52.641-89.852-92.575c-23.598-38.118-35.396-91.668-35.396-160.644 14.522 7.26 28.136 11.798 40.842 13.612 12.706 1.816 26.32 2.725 40.842 2.725 52.641 0 90.759-14.523 114.358-43.565 25.413-29.044 38.118-62.624 38.118-100.744 0-43.565-15.427-80.776-46.287-111.633-29.042-30.86-70.793-46.287-125.248-46.287zM680.518 299.597c-68.975 0-121.616 20.875-157.921 62.624-34.489 41.749-51.732 99.835-51.732 174.257 0 70.793 12.705 130.695 38.118 179.705s56.273 89.852 92.575 122.525c38.12 32.674 75.331 58.086 111.636 76.238 38.118 19.967 69.884 34.489 95.297 43.565l32.673-68.070c-30.857-12.706-63.53-29.951-98.019-51.733s-64.44-52.641-89.852-92.575c-23.599-38.118-35.398-91.668-35.398-160.644 14.523 7.26 28.135 11.798 40.843 13.612 12.708 1.816 26.319 2.725 40.843 2.725 52.641 0 90.759-14.523 114.356-43.565 25.413-29.044 38.12-62.624 38.12-100.744 0-43.565-15.43-80.776-46.287-111.633-29.044-30.86-70.793-46.287-125.25-46.287zM1192.281-62.514l-32.673 68.069c34.489 14.523 68.978 32.676 103.466 54.457s63.53 52.641 87.13 92.575c23.597 39.934 35.395 92.575 35.395 157.923-16.337-7.263-30.857-11.801-43.565-13.614-12.705-1.816-26.319-2.725-40.843-2.725-52.639 0-90.759 14.523-114.356 43.565-23.597 29.044-35.395 62.626-35.395 100.744 0 43.565 14.521 80.776 43.562 111.633 29.044 32.676 70.793 49.012 125.25 49.012 68.978 0 120.71-20.875 155.198-62.624 34.489-41.752 51.732-98.022 51.732-168.815 0-74.422-11.798-137.046-35.395-187.872-23.597-49.010-53.548-89.852-89.852-122.525-34.489-30.86-70.793-55.363-108.911-73.516-38.12-18.152-71.7-33.582-100.744-46.287zM1663.146-62.514l-32.673 68.069c34.489 14.523 68.975 32.676 103.464 54.457s63.533 52.641 87.13 92.575c23.599 39.934 35.398 92.575 35.398 157.923-16.337-7.263-30.86-11.801-43.565-13.614-12.708-1.816-26.322-2.725-40.843-2.725-52.641 0-90.759 14.523-114.358 43.565-23.597 29.044-35.395 62.626-35.395 100.744 0 43.565 14.521 80.776 43.565 111.633 29.044 32.676 70.793 49.012 125.248 49.012 68.978 0 120.712-20.875 155.198-62.624 34.489-41.752 51.734-98.022 51.734-168.815 0-74.422-11.798-137.046-35.395-187.872-23.599-49.010-53.55-89.852-89.852-122.525-34.489-30.86-70.793-55.363-108.911-73.516-38.12-18.152-71.702-33.582-100.744-46.287z" />
<glyph unicode="&#xe912;" glyph-name="arrow-2" d="M309.816 781.076l-301.539-298.828c-5.124-5.082-7.883-11.618-8.277-18.27v-3.516c0.394-6.647 3.153-13.188 8.277-18.27l1.476-1.246 300.063-297.579c11.102-11.008 29.103-11.008 40.205 0s11.102 28.86 0 39.868l-256.231 254.131 901.78-0.026c15.701 0 28.429 12.625 28.429 28.194s-12.727 28.19-28.429 28.19l-895.099 0.021 249.55 247.461c11.102 11.009 11.102 28.859 0 39.869s-29.103 11.009-40.205 0zM25.163 465.557l304.756-302.255-301.539 299.025 1.681 1.527 1.718 1.702h-6.617z" />
<glyph unicode="&#xe913;" glyph-name="search" d="M469.333 814.933c-179.087 0-324.267-145.179-324.267-324.267s145.179-324.267 324.267-324.267c179.087 0 324.267 145.179 324.267 324.267s-145.179 324.267-324.267 324.267zM110.933 490.667c0 197.939 160.461 358.4 358.4 358.4s358.4-160.461 358.4-358.4c0-197.939-160.461-358.4-358.4-358.4s-358.4 160.461-358.4 358.4zM698.332 261.668c6.665 6.665 17.471 6.665 24.136 0l185.6-185.6c6.665-6.665 6.665-17.471 0-24.136s-17.471-6.665-24.136 0l-185.6 185.6c-6.665 6.665-6.665 17.471 0 24.136z" />
</font>
</defs>
</svg>
